发布于: 2011-11-23 浏览次数: 360
资源信息

简介: -->
-->
-->转载请注明
◎译  名 雌鹅和雄鹅
◎片  名 The Goose and the Gander
◎年  代 1935
◎国  家 美国
◎类  别 喜剧/剧情/爱情
◎语  言 英语
◎字  幕 N/A
◎IMDB评分 6.6/10   ( 123 votes )
◎IMDB链接 http://www.imdb.com/title/tt0026426/
◎文件格式 X264 + AC3
◎视频尺寸 640 x 480
◎文件大小 1CD 50 x 15MB
◎片  长 65 mins
◎导  演 阿尔弗雷德 E·格林 Alfred E. Green
◎主  演 
Kay Francis
George Brent
Genevieve Tobin
John Eldredge
Claire Dodd
Ralph Forbes
Helen Lowell
Spencer Charters
William Austin
Eddie Shubert
Charles Coleman
Olive Jones
Bill Elliott
John Sheehan
Wade Boteler
简介
Georgiana is curious when she overhears Betty Summers plan to run away from her husband for the weekend with Bob McNear. She is even more interested when she learns that Betty was the woman who stole her husband, Ralph Summers. Planning a little revenge, she invites Ralph to visit her the next day at her Aunt Julia s cabin in the mountains near Santa Barbara. She obtains the licence plate numbers of both Bob s and Betty s cars and leaves them with the attendants at a gas station near the cabin. When they see Bob s car, the attendants claim they are out of gas and send Bob and Betty to Georgiana s cabin. Because she wants them to be there when Ralph arrives, she announces that her gas is locked up until morning and they will have to stay the night. Things become even more complicated when another couple, Lawrence and Connie Thurston, arrive in Betty s car. They are jewel thieves and have stolen Betty s car for their getaway. When Georgiana recognizes the car, Connie pretends to be the second Mrs. Summers. Lawrence hides the jewels in Aunt Julia s bedroom. When she finds them, Georgiana realizes who Lawrence and Connie are. The next day, as she tries to keep the jewels from the thieves, Georgiana spends a lot of time talking with Bob, and he asks her to marry him. She refuses, claiming that she is still in love with Ralph and intends to get him back. Meanwhile Ralph, and his brother Arthur arrive at the cabin and Lawrence locks them up. The police eventually show up and are thoroughly confused when Georgiana tries to explain everything that has happened. Realizing that she is in love with Bob, Georgiana no longer wants revenge on Betty and invents a story that will convince Ralph that Betty did nothing wrong. With the way cleared, Georgiana and Bob get married.
补充 ed2k://│file│The%20Goose%20and%20the%20Gander%20(1935)%20DVDRip%20x.264%20AC3%20Wolfman.mkv│733023470│71353DB2FA59BDF745E2CF24CE833996│h=ESCT3HUOA7O7E45GMJGQVF5UZ5ZIG5IY│/
代码 General
UniqueID                 : 229182911408924329479360058893804392579 (0xAC6B05EF48A04D3EA5940EE1EB2A5083)
Complete name               : D:eMuleThe Goose and the Gander (1935) DVDRip x.264 AC3 Wolfman.mkv
Format                   : Matroska
File size                 : 699 MiB
Duration                 : 1h 5mn
Overall bit rate             : 1 494 Kbps
Encoded date               : UTC 2010-09-22 15:53:48
Writing application           : mkvmerge v4.2.0 ( No Talking ) gebaut am Jul 28 2010 18:38:23
Writing library             : libebml v1.0.0 + libmatroska v1.0.0
Video
ID                     : 1
Format                   : AVC
Format/Info               : Advanced Video Codec
Format profile             : High@L3.0
Format settings, CABAC         : Yes
Format settings, ReFrames       : 4 frames
Muxing mode               : Header stripping
Codec ID                 : V_MPEG4/ISO/AVC
Duration                 : 1h 5mn
Bit rate                 : 1 272 Kbps
Width                   : 640 pixels
Height                   : 480 pixels
Display aspect ratio         : 4:3
Frame rate                 : 23.976 fps
Color space               : YUV
Chroma subsampling           : 4:2:0
Bit depth                 : 8 bits
Scan type                 : Progressive
Bits/(Pixel*Frame)           : 0.173
Stream size               : 595 MiB (85%)
Audio
ID                     : 2
Format                   : AC-3
Format/Info               : Audio Coding 3
Mode extension             : CM (complete main)
Muxing mode               : Header stripping
Codec ID                 : A_AC3
Duration                 : 1h 5mn
Bit rate mode               : Constant
Bit rate                 : 192 Kbps
Channel(s)                 : 2 channels
Channel positions           : Front: L R
Sampling rate               : 48.0 KHz
Bit depth                 : 16 bits
Compression mode             : Lossy
Stream size               : 89.8 MiB (13%)
Language                 : English
Menu
00:00:00.000               : en:Chapter 1
00:10:00.000               : en:Chapter 2
00:20:00.000               : en:Chapter 3
00:30:00.000               : en:Chapter 4
00:40:00.000               : en:Chapter 5
00:50:00.000               : en:Chapter 6
01:00:00.000               : en:Chapter 7
-->

资源评论
发表评论 共 0 条

推荐资源
本类热门
SimpleCD.cc 成立于2021年4月